Zaloguj
Spider-Man

Marvel’s Spider-Man
Kreskówka, 2017
8,50  głosy: 2Oceń:
Ulubiony
Do obejrzenia
Obejrzany
Ocena IMDB7,2/10
Premiera:
25 września 2017Polska29 lipca 2017
Produkcja:

Dodaj sezon
Jest w serwisieyenxKopiuj nick
yenx

Płeć:
Dołączył:
Punkty: 109671$
Podziękowania: 2370
Posty: 5806
Dubbing PL / PL
ocenił na: 0
Spider-Man / Marvel’s Spider-Man (2017) S01E15 PLDUB.1080p.HDTV.AAC2.0.H264 | Audio: Dubbing PL

Ogólne
Complete name : Marvel.Spider-Man.2017.S01E15.Origins.PLDUB.1080p.HDTV.AAC2.0.H264.mp4
Format : MPEG-4
Format profile : Base Media
Codec ID : isom (isom/iso2/avc1/mp41)
File size : 403 MiB
Duration : 21 min 9s
Overall bit rate : 2.664 kb/s
Writing application : Lavf54.63.104

Wideo
ID : 1
Format : AVC
Format/Info : Advanced Video Codec
Format profile : [email protected]
Format settings, CABAC : Tak
Format settings, ReFrames : 1 klatka
Format settings, GOP : M=1, N=30
Codec ID : avc1
Codec ID/Info : Advanced Video Coding
Duration : 21 min 9s
Bit rate : 2.471 kb/s
Width : 1.920 pikseli
Height : 1.080 pikseli
Display aspect ratio : 16:9
Frame rate mode : Stały
Frame rate : 25,000 kl/s
Color space : YUV
Chroma subsampling : 4:2:0
Bit depth : 8 bitów
Scan type : Progresywny
Bits/(Pixel*Frame) : 0.048
Stream size : 374 MiB (93%)
Color range : Limited
Color primaries : BT.709
Transfer characteristics : BT.709
Matrix coefficients : BT.709

Audio
ID : 2
Format : AAC
Format/Info : Advanced Audio Codec
Format profile : LC
Codec ID : 40
Duration : 21 min 9s
Duration_LastFrame : -21 ms
Bit rate mode : Stała
Bit rate : 192 kb/s
Channel(s) : 2 kanały
Channel positions : Front: L R
Sampling rate : 48,0 kHz
Frame rate : 46,875 kl/s (1024 SPF)
Stream size : 28,5 MiB (7%)
Language : Angielski
Default : Tak
Alternate group : 1

Kod:
Tekst widoczny dla zalogowanych.
_____
Jeżeli pobrałeś albo spodobał Ci się mój post lub obejrzałeś moje materiały kliknij dziękuję to nic Cię nie kosztuje i za wszystkie bardzo dziękuje!!! :dziękuję:

Obraz
Sygnatura•••
Podziękowania dla autora posta:
Djkam
Jest w serwisieyenxKopiuj nick
yenx

Płeć:
Dołączył:
Punkty: 109671$
Podziękowania: 2370
Posty: 5806
Dubbing PL / PL
ocenił na: 0
Spider-Man / Marvel’s Spider-Man (2017) S01 Multi.1080p.WEB-DL.DD2.0.DD5.1.AAC2.0.H264.CC | Audio: Dubbing PL + Angielski

Ogólne
Unique ID : 242674278213249897014922402328867107095 (0xB6915DAC9003E87CB8E957D04735F117)
Complete name : Marvel.Spider-Man.2017.S01E01.Horizon.High.Part.1.Multi.1080p.WEB-DL.DD5.1.DD2.0.AAC2.0.H264-YFN.mkv
Format : Matroska
Format version : Version 4 / Version 2
File size : 926 MiB
Duration : 22 min 7s
Overall bit rate : 5.854 kb/s
Encoded date : UTC 2017-09-30 10:49:55
Writing application : mkvmerge v15.0.0 ('Duel with the Devil') 64-bit
Writing library : libebml v1.3.5 + libmatroska v1.4.5

Wideo
ID : 1
Format : AVC
Format/Info : Advanced Video Codec
Format profile : [email protected]
Format settings, CABAC : Tak
Format settings, ReFrames : 4 klatki
Codec ID : V_MPEG4/ISO/AVC
Duration : 22 min 7s
Bit rate : 5.118 kb/s
Width : 1.920 pikseli
Height : 1.080 pikseli
Display aspect ratio : 16:9
Frame rate mode : Stały
Frame rate : 23,976 (24000/1001) kl/s
Color space : YUV
Chroma subsampling : 4:2:0
Bit depth : 8 bitów
Scan type : Progresywny
Bits/(Pixel*Frame) : 0.103
Stream size : 810 MiB (87%)
Title : H.264
Language : Angielski
Default : Tak
Forced : Nie
Color range : Limited
Color primaries : BT.709
Transfer characteristics : BT.709
Matrix coefficients : BT.709

Audio #1
ID : 2
Format : AC-3
Format/Info : Audio Coding 3
Format settings, Endianness : Big
Codec ID : A_AC3
Duration : 22 min 7s
Bit rate mode : Stała
Bit rate : 192 kb/s
Channel(s) : 2 kanały
Channel positions : Front: L R
Sampling rate : 48,0 kHz
Frame rate : 31,250 kl/s (1536 SPF)
Bit depth : 16 bitów
Stream size : 30,4 MiB (3%)
Title : DD2.0
Language : Polski
Service kind : Complete Main
Default : Tak
Forced : Nie

Audio #2
ID : 3
Format : AC-3
Format/Info : Audio Coding 3
Format settings, Endianness : Big
Codec ID : A_AC3
Duration : 22 min 7s
Bit rate mode : Stała
Bit rate : 384 kb/s
Channel(s) : 6 kanałów
Channel positions : Front: L C R, Side: L R, LFE
Sampling rate : 48,0 kHz
Frame rate : 31,250 kl/s (1536 SPF)
Bit depth : 16 bitów
Stream size : 60,8 MiB (7%)
Title : DD5.1
Language : Angielski
Service kind : Complete Main
Default : Nie
Forced : Nie

Audio #3
ID : 4
Format : AAC
Format/Info : Advanced Audio Codec
Format profile : LC
Codec ID : A_AAC
Duration : 22 min 7s
Bit rate : 157 kb/s
Channel(s) : 2 kanały
Channel positions : Front: L R
Sampling rate : 48,0 kHz
Frame rate : 46,875 kl/s (1024 SPF)
Stream size : 24,9 MiB (3%)
Title : AAC2.0
Language : Angielski
Default : Nie
Forced : Nie

Tekst
ID : 5
Format : UTF-8
Codec ID : S_TEXT/UTF8
Codec ID/Info : UTF-8 Plain Text
Duration : 21 min 35s
Bit rate : 92 b/s
Count of elements : 419
Stream size : 14,7 KiB (0%)
Title : CC
Language : Angielski
Default : Nie
Forced : Nie

Kod:
Tekst widoczny dla zalogowanych.

Kod:
Tekst widoczny dla zalogowanych.
_____
Jeżeli pobrałeś albo spodobał Ci się mój post lub obejrzałeś moje materiały kliknij dziękuję to nic Cię nie kosztuje i za wszystkie bardzo dziękuje!!! :dziękuję:

Obraz
Sygnatura•••
Podziękowania dla autora posta:
fefes, Abissor
Jest w serwisieyenxKopiuj nick
yenx

Płeć:
Dołączył:
Punkty: 109671$
Podziękowania: 2370
Posty: 5806
Dubbing PL / PL
ocenił na: 0
Spider-Man / Marvel’s Spider-Man (2017) S01E11 PLDUB.1080p.HDTV.AAC2.0.H264 | Audio: Dubbing PL
Ogólne
Complete name : Marvel.Spider-Man.2017.S01E11.Halloween.Moon.PLDUB.1080p.HDTV.AAC2.0.H264.mp4
Format : MPEG-4
Format profile : Base Media
Codec ID : isom (isom/iso2/avc1/mp41)
File size : 403 MiB
Duration : 21 min 8s
Overall bit rate : 2.663 kb/s
Writing application : Lavf54.63.104

Wideo
ID : 1
Format : AVC
Format/Info : Advanced Video Codec
Format profile : [email protected]
Format settings, CABAC : Tak
Format settings, ReFrames : 1 klatka
Format settings, GOP : M=1, N=30
Codec ID : avc1
Codec ID/Info : Advanced Video Coding
Duration : 21 min 8s
Bit rate : 2.470 kb/s
Width : 1.920 pikseli
Height : 1.080 pikseli
Display aspect ratio : 16:9
Frame rate mode : Stały
Frame rate : 25,000 kl/s
Color space : YUV
Chroma subsampling : 4:2:0
Bit depth : 8 bitów
Scan type : Progresywny
Bits/(Pixel*Frame) : 0.048
Stream size : 373 MiB (93%)
Color range : Limited
Color primaries : BT.709
Transfer characteristics : BT.709
Matrix coefficients : BT.709

Audio
ID : 2
Format : AAC
Format/Info : Advanced Audio Codec
Format profile : LC
Codec ID : 40
Duration : 21 min 8s
Duration_LastFrame : -21 ms
Bit rate mode : Stała
Bit rate : 192 kb/s
Channel(s) : 2 kanały
Channel positions : Front: L R
Sampling rate : 48,0 kHz
Frame rate : 46,875 kl/s (1024 SPF)
Stream size : 28,5 MiB (7%)
Language : Angielski
Default : Tak
Alternate group : 1

Kod:
Tekst widoczny dla zalogowanych.
_____
Jeżeli pobrałeś albo spodobał Ci się mój post lub obejrzałeś moje materiały kliknij dziękuję to nic Cię nie kosztuje i za wszystkie bardzo dziękuje!!! :dziękuję:

Obraz
Sygnatura•••
Jest w serwisieyenxKopiuj nick
yenx

Płeć:
Dołączył:
Punkty: 109671$
Podziękowania: 2370
Posty: 5806
Dubbing PL / PL
ocenił na: 0
linki na prośbę na catshare
Kod:
Tekst widoczny dla zalogowanych.
_____
Jeżeli pobrałeś albo spodobał Ci się mój post lub obejrzałeś moje materiały kliknij dziękuję to nic Cię nie kosztuje i za wszystkie bardzo dziękuje!!! :dziękuję:

Obraz
Sygnatura•••
Podziękowania dla autora posta:
anex33, lukiii6, Djkam
Jest w serwisieyenxKopiuj nick
yenx

Płeć:
Dołączył:
Punkty: 109671$
Podziękowania: 2370
Posty: 5806
Dubbing PL / PL
ocenił na: 0
linki na catshare
Kod:
Tekst widoczny dla zalogowanych.
_____
Jeżeli pobrałeś albo spodobał Ci się mój post lub obejrzałeś moje materiały kliknij dziękuję to nic Cię nie kosztuje i za wszystkie bardzo dziękuje!!! :dziękuję:

Obraz
Sygnatura•••
Jest w serwisieyenxKopiuj nick
yenx

Płeć:
Dołączył:
Punkty: 109671$
Podziękowania: 2370
Posty: 5806
Dubbing PL / PL
ocenił na: 0
Marvel Spider-Man (2017)
PL.DUB.1080p.WEB-DL.H.264-eend / Dubbing PL *SEZON 1*


~# DANE TECHNiCZNE / RELEASE .iNFO #~

Dane techniczne przykładowego odcinka:
Rozmiar pliku: 838.9 MiB , Czas trwania: 00:22:07 , Ogólne bitrate pliku: 5 302 Kbps , Format: Matroska , Video FPS: 23.976 , Video bitrate: 5 005 Kbps , Video rozdzielczość: 1920x1080 , video rozmiar: 792 MiB (94%) , Video proporcje obrazu: 16:9 , Audio format: AC-3 , Audio format wynik: Audio Coding 3 , Audio bitrate: 192 Kbps, Audio liczba kanałów: 2 , Audio sampling rate: 48.0 KHz , Audio resolution: 16 bits , Audio rozmiar: 30.4 MiB (4%)


~# ZDJĘCiA / SCREENS #~



~# POBiERZ / DOWNLOAD #~

Obraz
Kod:
Tekst widoczny dla zalogowanych.

Obraz
Kod:
Tekst widoczny dla zalogowanych.

Obraz
Kod:
Tekst widoczny dla zalogowanych.
_____
Jeżeli pobrałeś albo spodobał Ci się mój post lub obejrzałeś moje materiały kliknij dziękuję to nic Cię nie kosztuje i za wszystkie bardzo dziękuje!!! :dziękuję:

Obraz
Sygnatura•••
Jest w serwisieyenxKopiuj nick
yenx

Płeć:
Dołączył:
Punkty: 109671$
Podziękowania: 2370
Posty: 5806
Dubbing PL / PL
ocenił na: 0
Spider-Man / Marvel’s Spider-Man (2017) S01 Multi.1080p.WEB-DL.DD2.0.DD5.1.AAC2.0.H264.CC | Audio: Dubbing PL + Angielski
Ogólne
Unique ID : 79566459603430754136376463154230313409 (0x3BDBF1559161952919928F20C94BC1C1)
Complete name : Marvel.Spider-Man.2017.S01E09.Ultimate.Spider-Man.Multi.1080p.WEB-DL.DD5.1.DD2.0.AAC2.0.H264-YFN.mkv
Format : Matroska
Format version : Version 4 / Version 2
File size : 934 MiB
Duration : 22 min 7s
Overall bit rate : 5.900 kb/s
Encoded date : UTC 2018-01-13 15:25:56
Writing application : mkvmerge v19.0.0 ('Brave Captain') 64-bit
Writing library : libebml v1.3.5 + libmatroska v1.4.8

Wideo
ID : 1
Format : AVC
Format/Info : Advanced Video Codec
Format profile : [email protected]
Format settings : CABAC / 4 Ref Frames
Format settings, CABAC : Tak
Format settings, ReFrames : 4 klatki
Codec ID : V_MPEG4/ISO/AVC
Duration : 22 min 7s
Bit rate : 5.100 kb/s
Width : 1.920 pikseli
Height : 1.080 pikseli
Display aspect ratio : 16:9
Frame rate mode : Stały
Frame rate : 23,976 (24000/1001) kl/s
Color space : YUV
Chroma subsampling : 4:2:0
Bit depth : 8 bitów
Scan type : Progresywny
Bits/(Pixel*Frame) : 0.103
Stream size : 807 MiB (86%)
Title : H.264
Language : Angielski
Default : Tak
Forced : Nie
Color range : Limited
Color primaries : BT.709
Transfer characteristics : BT.709
Matrix coefficients : BT.709

Audio #1
ID : 2
Format : AC-3
Format/Info : Audio Coding 3
Codec ID : A_AC3
Duration : 22 min 7s
Bit rate mode : Stała
Bit rate : 256 kb/s
Channel(s) : 2 kanały
Channel positions : Front: L R
Sampling rate : 48,0 kHz
Frame rate : 31,250 kl/s (1536 SPF)
Bit depth : 16 bitów
Stream size : 40,5 MiB (4%)
Title : DD2.0
Language : Polski
Service kind : Complete Main
Default : Tak
Forced : Nie

Audio #2
ID : 3
Format : AC-3
Format/Info : Audio Coding 3
Codec ID : A_AC3
Duration : 22 min 7s
Bit rate mode : Stała
Bit rate : 384 kb/s
Channel(s) : 6 kanałów
Channel positions : Front: L C R, Side: L R, LFE
Sampling rate : 48,0 kHz
Frame rate : 31,250 kl/s (1536 SPF)
Bit depth : 16 bitów
Stream size : 60,8 MiB (7%)
Title : DD5.1
Language : Angielski
Service kind : Complete Main
Default : Nie
Forced : Nie

Audio #3
ID : 4
Format : AAC
Format/Info : Advanced Audio Codec
Format profile : LC
Codec ID : A_AAC-2
Duration : 22 min 7s
Bit rate : 157 kb/s
Channel(s) : 2 kanały
Channel positions : Front: L R
Sampling rate : 48,0 kHz
Frame rate : 46,875 kl/s (1024 SPF)
Stream size : 24,8 MiB (3%)
Title : AAC2.0
Language : Angielski
Default : Nie
Forced : Nie

Tekst
ID : 5
Format : UTF-8
Codec ID : S_TEXT/UTF8
Codec ID/Info : UTF-8 Plain Text
Duration : 21 min 35s
Bit rate : 98 b/s
Count of elements : 430
Stream size : 15,6 KiB (0%)
Title : CC
Language : Angielski
Default : Nie
Forced : Nie

Kod:
Tekst widoczny dla zalogowanych.
_____
Jeżeli pobrałeś albo spodobał Ci się mój post lub obejrzałeś moje materiały kliknij dziękuję to nic Cię nie kosztuje i za wszystkie bardzo dziękuje!!! :dziękuję:

Obraz
Sygnatura•••
Podziękowania dla autora posta:
fefes, anex33